<?xml version="1.0" standalone="no"?>
<!DOCTYPE svg PUBLIC "-//W3C//DTD SVG 1.1//EN" "http://www.w3.org/Graphics/SVG/1.1/DTD/svg11.dtd" >
<svg xmlns="http://www.w3.org/2000/svg">
<metadata>
This is a custom SVG webfont generated by Font Squirrel.
Copyright   : Created by Sizenko Alexander  2008 Style7 All rights reserved
Designer    : Sizenko Alexander
Foundry     : Created by Sizenko Alexander 
</metadata>
<defs>
<font id="Digital7Mono" horiz-adv-x="930" >
<font-face units-per-em="2048" ascent="1638" descent="-410" />
<missing-glyph horiz-adv-x="500" />
<glyph unicode=" " />
<glyph unicode="!" d="M391 0v149h149v-149h-149zM391 1192l56 149q74 -19 93 -94v-521l-37 -37l-112 112v391zM391 298v242l112 112l37 -38v-316h-149z" />
<glyph unicode="&#x22;" d="M261 1043v298h149v-298l-75 -75zM560 1044v298h149v-298l-74 -74z" />
<glyph unicode="#" d="M56 521l74 75h75l74 -75l-74 -74h-75zM56 817l74 75h75l74 -75l-74 -74h-75zM242 296v114l75 74l74 -74v-114l-74 -74zM242 633v74l75 75l74 -75v-74l-74 -74zM242 931v112l75 74l74 -74v-112l-74 -75zM354 521l74 75h75l74 -75l-74 -74h-75zM354 819l74 75h75l74 -75 l-74 -74h-75zM540 298v113l74 75l75 -75v-113l-75 -75zM540 633v74l74 75l75 -75v-74l-75 -74zM540 931v112l74 74l75 -74v-112l-75 -75zM652 519l74 75h75l74 -75l-74 -74h-75zM652 819l74 75h75l74 -75l-74 -74h-75z" />
<glyph unicode="$" d="M74 93l149 56h447l56 -149h-558q-75 19 -94 93zM74 726v484l149 -56v-353l-111 -112zM76 1247q19 74 93 94h594q74 -19 93 -94l-149 -55h-482zM149 670l74 75h484l75 -75l-75 -74h-484zM410 -56h149v-93l-75 -74l-74 74v93zM410 205v335h149v-335h-149zM410 801v335h149 v-335h-149zM410 1396v93l74 75l75 -75v-93h-149zM707 149v391l112 112l37 -38v-521q-19 -74 -93 -93z" />
<glyph unicode="%" d="M0 987v223l149 -56v-111l-56 -149q-74 19 -93 93zM0 1247q19 74 93 94h224l-56 -149h-112zM74 74l287 578h84v-201l-222 -451q-112 0 -149 74zM130 894l56 149h112l149 -56q-19 -74 -93 -93h-224zM298 1192l56 149q74 -19 93 -94v-223l-149 56v112zM484 93v224l149 -56 v-112l-56 -149q-74 19 -93 93zM484 354q19 74 93 93h224l-56 -149h-112zM486 689v201l221 451q112 0 149 -75l-286 -577h-84zM614 0l56 149h112l149 -56q-19 -74 -93 -93h-224zM782 298l56 149q74 -19 93 -93v-224l-149 56v112z" />
<glyph unicode="&#x26;" d="M74 93l149 56h596l112 -112l-37 -37h-726q-75 19 -94 93zM74 130v484l38 38l111 -112v-354zM149 670l74 75h484l75 -75l-75 -74h-484zM149 801v335l149 -56v-205l-112 -112zM149 1173q19 74 93 93h410l-56 -149h-298zM633 1117l56 149q74 -19 93 -93v-372l-37 -38 l-112 112v242zM707 -37h149v-93l-37 -38l-112 112v19zM707 242v298l112 112l37 -38v-428h-93z" />
<glyph unicode="'" d="M410 1043v298h149v-298l-75 -75z" />
<glyph unicode="(" d="M74 186v428l38 38l111 -112v-391l-55 -56zM74 726v428l94 93l55 -55v-391l-111 -112zM186 74l75 75h204l75 -75l-75 -74h-204zM186 1266l75 75h204l75 -75l-75 -74h-204z" />
<glyph unicode=")" d="M354 74l74 75h205l74 -75l-74 -74h-205zM354 1266l74 75h205l74 -75l-74 -74h-205zM670 149v391l112 112l37 -38v-428l-93 -93zM670 801v391l56 55l93 -93v-428l-37 -37z" />
<glyph unicode="*" d="M158 493l28 103l129 74l-129 75l-28 102l103 28l130 -74v149l74 74l75 -74v-149l130 74l103 -28l-28 -102l-129 -75l129 -74l28 -103l-103 -28l-130 75v-149l-75 -74l-74 74v149l-130 -75z" />
<glyph unicode="+" d="M149 670l74 75h168v167l74 75l75 -75v-167h167l75 -75l-75 -74h-167v-168l-75 -74l-74 74v168h-168z" />
<glyph unicode="," d="M391 -149v298h149v-298l-75 -74z" />
<glyph unicode="-" d="M149 670l74 75h484l75 -75l-75 -74h-484z" />
<glyph unicode="." d="M391 0v149h149v-149h-149z" />
<glyph unicode="/" d="M74 74l287 578h84v-201l-222 -451q-112 0 -149 74zM486 689v201l221 451q112 0 149 -75l-286 -577h-84z" />
<glyph unicode="0" d="M74 93l149 56h447l56 -149h-558q-75 19 -94 93zM74 726v484l149 -56v-353l-111 -112zM74 130v484l38 38l111 -112v-354zM76 1247q19 74 93 94h557l-56 -149h-445zM707 149v391l112 112l37 -38v-521q-19 -74 -93 -93zM707 1192l56 149q74 -19 93 -94v-521l-37 -37 l-112 112v391z" />
<glyph unicode="1" d="M707 149v391l112 112l37 -38v-521q-19 -74 -93 -93zM707 1192l56 149q74 -19 93 -94v-521l-37 -37l-112 112v391z" />
<glyph unicode="2" d="M74 93l149 56h503l56 -149h-614q-75 19 -94 93zM74 130v484l38 38l111 -112v-354zM76 1247q19 74 93 94h557l-56 -149h-445zM149 670l74 75h484l75 -75l-75 -74h-484zM707 1192l56 149q74 -19 93 -94v-521l-37 -37l-112 112v391z" />
<glyph unicode="3" d="M74 93l149 56h447l56 -149h-558q-75 19 -94 93zM76 1247q19 74 93 94h557l-56 -149h-445zM149 670l74 75h484l75 -75l-75 -74h-484zM707 149v391l112 112l37 -38v-521q-19 -74 -93 -93zM707 1192l56 149q74 -19 93 -94v-521l-37 -37l-112 112v391z" />
<glyph unicode="4" d="M74 726v540l149 -56v-409l-111 -112zM149 670l74 75h484l75 -75l-75 -74h-484zM707 149v391l112 112l37 -38v-521q-19 -74 -93 -93zM707 1192l56 149q74 -19 93 -94v-521l-37 -37l-112 112v391z" />
<glyph unicode="5" d="M74 93l149 56h447l56 -149h-558q-75 19 -94 93zM74 726v484l149 -56v-353l-111 -112zM76 1247q19 74 93 94h613l-56 -149h-501zM149 670l74 75h484l75 -75l-75 -74h-484zM707 149v391l112 112l37 -38v-521q-19 -74 -93 -93z" />
<glyph unicode="6" d="M74 93l149 56h447l56 -149h-558q-75 19 -94 93zM74 726v484l149 -56v-353l-111 -112zM74 130v484l38 38l111 -112v-354zM76 1247q19 74 93 94h613l-56 -149h-501zM149 670l74 75h484l75 -75l-75 -74h-484zM707 149v391l112 112l37 -38v-521q-19 -74 -93 -93z" />
<glyph unicode="7" d="M74 726v484l149 -56v-353l-111 -112zM76 1247q19 74 93 94h557l-56 -149h-445zM707 1192l56 149q74 -19 93 -94v-521l-37 -37l-112 112v391zM707 149v391l112 112l37 -38v-521q-19 -74 -93 -93z" />
<glyph unicode="8" d="M74 93l149 56h447l56 -149h-558q-75 19 -94 93zM74 726v484l149 -56v-353l-111 -112zM74 130v484l38 38l111 -112v-354zM76 1247q19 74 93 94h557l-56 -149h-445zM149 670l74 75h484l75 -75l-75 -74h-484zM707 149v391l112 112l37 -38v-521q-19 -74 -93 -93zM707 1192 l56 149q74 -19 93 -94v-521l-37 -37l-112 112v391z" />
<glyph unicode="9" d="M74 93l149 56h447l56 -149h-558q-75 19 -94 93zM74 726v484l149 -56v-353l-111 -112zM76 1247q19 74 93 94h557l-56 -149h-445zM149 670l74 75h484l75 -75l-75 -74h-484zM707 149v391l112 112l37 -38v-521q-19 -74 -93 -93zM707 1192l56 149q74 -19 93 -94v-521l-37 -37 l-112 112v391z" />
<glyph unicode=":" d="M391 298v149h149v-149h-149zM391 894v149h149v-149h-149z" />
<glyph unicode=";" d="M391 -149v298h149v-298l-75 -74zM391 894v149h149v-149h-149z" />
<glyph unicode="&#x3c;" d="M186 652h205l298 -300l-56 -73h-74zM186 689l373 372h74l56 -72l-298 -300h-205z" />
<glyph unicode="=" d="M149 519l74 75h484l75 -75l-75 -74h-484zM149 819l74 75h484l75 -75l-75 -74h-484z" />
<glyph unicode="&#x3e;" d="M186 352l298 300h205l-372 -373h-75zM186 989l56 72h75l372 -372h-205z" />
<glyph unicode="?" d="M74 0v149h149v-149h-149zM74 298v316l38 38l111 -112v-242h-149zM76 1247q19 74 93 94h557l-56 -149h-445zM149 670l74 75h484l75 -75l-75 -74h-484zM707 1192l56 149q74 -19 93 -94v-521l-37 -37l-112 112v391z" />
<glyph unicode="@" d="M74 93l149 56h447l56 -149h-558q-75 19 -94 93zM74 726v484l149 -56v-353l-111 -112zM74 130v484l38 38l111 -112v-354zM76 1247q19 74 93 94h557l-56 -149h-445zM372 389l149 58h149l56 -149l-261 -2q-74 19 -93 93zM372 951q19 74 93 93l205 -1v-149h-149zM372 428v186 l38 38l111 -112v-56zM372 726v186l149 -56v-55l-111 -112zM707 447v93l112 112l37 -38v-223q-19 -74 -93 -93zM707 1192l56 149q74 -19 93 -94v-521l-37 -37l-112 112v391z" />
<glyph unicode="A" d="M74 93v521l38 38l111 -112v-391l-55 -149q-75 19 -94 93zM74 726v484l149 -56v-353l-111 -112zM76 1247q19 74 93 94h557l-56 -149h-445zM149 670l74 75h484l75 -75l-75 -74h-484zM707 1192l56 149q74 -19 93 -94v-521l-37 -37l-112 112v391zM707 149v391l112 112l37 -38 v-521q-19 -74 -93 -93z" />
<glyph unicode="B" d="M74 0v93l149 56h445l75 -75l-75 -74h-594zM74 130v484l38 38l111 -112v-354zM74 726v484l149 -56v-353l-111 -112zM74 1247v94h596l75 -75l-75 -74h-447zM149 670l74 75h484l75 -75l-75 -74h-484zM707 149v391l112 112l37 -38v-428l-93 -93zM707 801v391l56 55l93 -93 v-428l-37 -37z" />
<glyph unicode="C" d="M74 93l149 56h503l56 -149h-614q-75 19 -94 93zM74 726v484l149 -56v-353l-111 -112zM74 130v484l38 38l111 -112v-354zM76 1247q19 74 93 94h613l-56 -149h-501z" />
<glyph unicode="D" d="M74 0v93l149 56h445l75 -75l-75 -74h-594zM74 130v484l38 38l111 -112v-354zM74 726v484l149 -56v-353l-111 -112zM74 1247v94h596l75 -75l-75 -74h-447zM707 149v391l112 112l37 -38v-428l-93 -93zM707 801v391l56 55l93 -93v-428l-37 -37z" />
<glyph unicode="E" d="M74 93l149 56h503l56 -149h-614q-75 19 -94 93zM74 726v484l149 -56v-353l-111 -112zM74 130v484l38 38l111 -112v-354zM76 1247q19 74 93 94h613l-56 -149h-501zM149 670l74 75h484l75 -75l-75 -74h-484z" />
<glyph unicode="F" d="M74 93v521l38 38l111 -112v-391l-55 -149q-75 19 -94 93zM74 726v484l149 -56v-353l-111 -112zM76 1247q19 74 93 94h613l-56 -149h-501zM149 670l74 75h484l75 -75l-75 -74h-484z" />
<glyph unicode="G" d="M74 93l149 56h447l56 -149h-558q-75 19 -94 93zM74 726v484l149 -56v-353l-111 -112zM74 130v484l38 38l111 -112v-354zM76 1247q19 74 93 94h613l-56 -149h-501zM465 670l75 75h167l75 -75l-75 -74h-167zM707 149v391l112 112l37 -38v-521q-19 -74 -93 -93z" />
<glyph unicode="H" d="M74 93v521l38 38l111 -112v-391l-55 -149q-75 19 -94 93zM74 707v522q19 74 94 93l55 -149v-391l-111 -112zM149 670l74 75h484l75 -75l-75 -74h-484zM707 149v391l112 112l37 -38v-521q-19 -74 -93 -93zM707 1192l56 149q74 -19 93 -94v-521l-37 -37l-112 112v391z" />
<glyph unicode="I" d="M372 168v391l112 111l37 -37v-521q-19 -74 -93 -93zM372 1192l56 149q74 -19 93 -94v-521l-37 -37l-112 112v391z" />
<glyph unicode="J" d="M74 93l149 56h447l56 -149h-558q-75 19 -94 93zM74 130v484l38 38l111 -112v-354zM707 149v391l112 112l37 -38v-521q-19 -74 -93 -93zM707 1192l56 149q74 -19 93 -94v-521l-37 -37l-112 112v391z" />
<glyph unicode="K" d="M74 93v521l38 38l111 -112v-391l-55 -149q-75 19 -94 93zM74 726v521q19 74 94 94l55 -149v-391l-111 -112zM149 670l74 75h484l75 -75l-75 -74h-484zM261 782v112l446 447q112 0 149 -75l-484 -484h-111zM707 149v391l112 112l37 -38v-521q-19 -74 -93 -93z" />
<glyph unicode="L" d="M74 93v521l38 38l111 -112v-391l-55 -149q-75 19 -94 93zM74 726v521q19 74 94 94l55 -149v-391l-111 -112zM205 0l56 149h446l149 -56q-19 -74 -93 -93h-558z" />
<glyph unicode="M" d="M74 93v521l38 38l111 -112v-391l-55 -149q-75 19 -94 93zM74 726v484l149 -56v-353l-111 -112zM76 1247q19 74 93 94h557l-56 -149h-445zM391 726v428h149v-428l-75 -74zM707 1192l56 149q74 -19 93 -94v-521l-37 -37l-112 112v391zM707 149v391l112 112l37 -38v-521 q-19 -74 -93 -93z" />
<glyph unicode="N" d="M74 93v521l38 38l111 -112v-391l-55 -149q-75 19 -94 93zM74 707v522q19 74 94 93l55 -149v-391l-111 -112zM261 1061v112h111l298 -298v-93h-130zM707 149v391l112 112l37 -38v-521q-19 -74 -93 -93zM707 1173l56 149q74 -19 93 -93v-522l-37 -37l-112 112v391z" />
<glyph unicode="O" d="M74 186v428l38 38l111 -112v-391l-55 -56zM74 726v428l94 93l55 -55v-391l-111 -112zM186 74l75 75h409l75 -75l-75 -74h-409zM186 1266l75 75h409l75 -75l-75 -74h-409zM707 149v391l112 112l37 -38v-428l-93 -93zM707 801v391l56 55l93 -93v-428l-37 -37z" />
<glyph unicode="P" d="M74 93v521l38 38l111 -112v-391l-55 -149q-75 19 -94 93zM74 726v484l149 -56v-353l-111 -112zM74 1247v94h596l75 -75l-75 -74h-447zM149 670l74 75h484l75 -75l-75 -74h-484zM707 801v391l56 55l93 -93v-428l-37 -37z" />
<glyph unicode="Q" d="M74 93l149 56h317l149 -149h-521q-75 19 -94 93zM74 726v484l149 -56v-353l-111 -112zM74 130v484l38 38l111 -112v-354zM76 1247q19 74 93 94h557l-56 -149h-445zM521 223v112h112l242 -242v-112h-112zM707 1192l56 149q74 -19 93 -94v-521l-37 -37l-112 112v391z M707 317v223l112 112l37 -38v-446z" />
<glyph unicode="R" d="M74 726v484l149 -56v-353l-111 -112zM74 93v521l38 38l111 -112v-391l-55 -149q-75 19 -94 93zM76 1247q19 74 93 94h557l-56 -149h-445zM149 670l74 75h484l75 -75l-75 -74h-484zM261 447v112h111l484 -485q-37 -74 -149 -74zM707 1192l56 149q74 -19 93 -94v-521 l-37 -37l-112 112v391z" />
<glyph unicode="S" d="M74 93l149 56h447l56 -149h-558q-75 19 -94 93zM74 726v484l149 -56v-353l-111 -112zM76 1247q19 74 93 94h594q74 -19 93 -94l-149 -55h-482zM149 670l74 75h484l75 -75l-75 -74h-484zM707 149v391l112 112l37 -38v-521q-19 -74 -93 -93z" />
<glyph unicode="T" d="M76 1247q19 74 93 94h594q74 -19 93 -94l-149 -55h-482zM391 149v428l74 75l75 -75v-484q-19 -74 -93 -93zM391 763v391h149v-391l-75 -74z" />
<glyph unicode="U" d="M74 707v522q19 74 94 93l55 -149v-391l-111 -112zM74 93l149 56h447l56 -149h-558q-75 19 -94 93zM74 130v484l38 38l111 -112v-354zM707 149v391l112 112l37 -38v-521q-19 -74 -93 -93zM707 1192l56 149q74 -19 93 -94v-521l-37 -37l-112 112v391z" />
<glyph unicode="V" d="M74 484v112l38 37l111 -112l224 -298v-223zM74 707v522q19 74 94 93l55 -149v-391l-111 -112zM484 0v223l223 298l112 112l37 -37v-112zM707 1173l56 149q74 -19 93 -93v-522l-37 -37l-112 112v391z" />
<glyph unicode="W" d="M74 130v484l38 38l111 -112v-354zM74 726v521q19 74 94 94l55 -149v-391l-111 -112zM76 93l149 56h445l56 -149h-557q-74 19 -93 93zM391 186v428l74 75l75 -75v-428h-149zM707 1192l56 149q74 -19 93 -94v-521l-37 -37l-112 112v391zM707 149v391l112 112l37 -38v-521 q-19 -74 -93 -93z" />
<glyph unicode="X" d="M74 74l287 578h84v-201l-222 -451q-112 0 -149 74zM76 1266q37 74 149 75l222 -453v-199h-84zM484 451v201h84l287 -578q-37 -74 -149 -74zM486 689v201l221 451q112 0 149 -75l-286 -577h-84z" />
<glyph unicode="Y" d="M74 93l149 56h447l56 -149h-558q-75 19 -94 93zM74 726v540l149 -56v-409l-111 -112zM149 670l74 75h484l75 -75l-75 -74h-484zM707 149v391l112 112l37 -38v-521q-19 -74 -93 -93zM707 1192l56 149q74 -19 93 -94v-521l-37 -37l-112 112v391z" />
<glyph unicode="Z" d="M74 74l298 578h112v-112l-261 -540q-112 0 -149 74zM76 1247q19 74 93 94h501l-74 -149h-371zM261 0l74 149h391l56 -149h-521zM465 689v112l242 540q112 0 149 -75l-279 -577h-112z" />
<glyph unicode="[" d="M74 726v484l149 -56v-353l-111 -112zM74 130v484l38 38l111 -112v-354zM76 93l149 56h129l111 -112l-37 -37h-259q-74 19 -93 93zM76 1247q19 74 93 94h259l37 -38l-111 -111h-129z" />
<glyph unicode="\" d="M76 1266q37 74 149 75l222 -453v-199h-84zM484 451v201h84l287 -578q-37 -74 -149 -74z" />
<glyph unicode="]" d="M465 37l112 112h93l56 -149h-223zM465 1303l38 38h223l-56 -149h-93zM707 149v391l112 112l37 -38v-521q-19 -74 -93 -93zM707 1192l56 149q74 -19 93 -94v-521l-37 -37l-112 112v391z" />
<glyph unicode="^" d="M74 894v74l373 373l-2 -205l-298 -298zM482 1136v205l373 -373v-74l-73 -56z" />
<glyph unicode="_" d="M74 93l149 56h483l149 -56q-19 -74 -94 -93h-593q-75 19 -94 93z" />
<glyph unicode="`" d="M298 1303l19 75h74l242 -242v-75l-74 -18z" />
<glyph unicode="a" d="M74 93v521l38 38l111 -112v-391l-55 -149q-75 19 -94 93zM74 726v484l149 -56v-353l-111 -112zM76 1247q19 74 93 94h557l-56 -149h-445zM149 670l74 75h484l75 -75l-75 -74h-484zM707 1192l56 149q74 -19 93 -94v-521l-37 -37l-112 112v391zM707 149v391l112 112l37 -38 v-521q-19 -74 -93 -93z" />
<glyph unicode="b" d="M74 0v93l149 56h445l75 -75l-75 -74h-594zM74 130v484l38 38l111 -112v-354zM74 726v484l149 -56v-353l-111 -112zM74 1247v94h596l75 -75l-75 -74h-447zM149 670l74 75h484l75 -75l-75 -74h-484zM707 149v391l112 112l37 -38v-428l-93 -93zM707 801v391l56 55l93 -93 v-428l-37 -37z" />
<glyph unicode="c" d="M74 93l149 56h503l56 -149h-614q-75 19 -94 93zM74 726v484l149 -56v-353l-111 -112zM74 130v484l38 38l111 -112v-354zM76 1247q19 74 93 94h613l-56 -149h-501z" />
<glyph unicode="d" d="M74 0v93l149 56h445l75 -75l-75 -74h-594zM74 130v484l38 38l111 -112v-354zM74 726v484l149 -56v-353l-111 -112zM74 1247v94h596l75 -75l-75 -74h-447zM707 149v391l112 112l37 -38v-428l-93 -93zM707 801v391l56 55l93 -93v-428l-37 -37z" />
<glyph unicode="e" d="M74 93l149 56h503l56 -149h-614q-75 19 -94 93zM74 726v484l149 -56v-353l-111 -112zM74 130v484l38 38l111 -112v-354zM76 1247q19 74 93 94h613l-56 -149h-501zM149 670l74 75h484l75 -75l-75 -74h-484z" />
<glyph unicode="f" d="M74 93v521l38 38l111 -112v-391l-55 -149q-75 19 -94 93zM74 726v484l149 -56v-353l-111 -112zM76 1247q19 74 93 94h613l-56 -149h-501zM149 670l74 75h484l75 -75l-75 -74h-484z" />
<glyph unicode="g" d="M74 93l149 56h447l56 -149h-558q-75 19 -94 93zM74 726v484l149 -56v-353l-111 -112zM74 130v484l38 38l111 -112v-354zM76 1247q19 74 93 94h613l-56 -149h-501zM465 670l75 75h167l75 -75l-75 -74h-167zM707 149v391l112 112l37 -38v-521q-19 -74 -93 -93z" />
<glyph unicode="h" d="M74 93v521l38 38l111 -112v-391l-55 -149q-75 19 -94 93zM74 707v522q19 74 94 93l55 -149v-391l-111 -112zM149 670l74 75h484l75 -75l-75 -74h-484zM707 149v391l112 112l37 -38v-521q-19 -74 -93 -93zM707 1192l56 149q74 -19 93 -94v-521l-37 -37l-112 112v391z" />
<glyph unicode="i" d="M372 168v391l112 111l37 -37v-521q-19 -74 -93 -93zM372 1192l56 149q74 -19 93 -94v-521l-37 -37l-112 112v391z" />
<glyph unicode="j" d="M74 93l149 56h447l56 -149h-558q-75 19 -94 93zM74 130v484l38 38l111 -112v-354zM707 149v391l112 112l37 -38v-521q-19 -74 -93 -93zM707 1192l56 149q74 -19 93 -94v-521l-37 -37l-112 112v391z" />
<glyph unicode="k" d="M74 93v521l38 38l111 -112v-391l-55 -149q-75 19 -94 93zM74 726v521q19 74 94 94l55 -149v-391l-111 -112zM149 670l74 75h484l75 -75l-75 -74h-484zM261 782v112l446 447q112 0 149 -75l-484 -484h-111zM707 149v391l112 112l37 -38v-521q-19 -74 -93 -93z" />
<glyph unicode="l" d="M74 93v521l38 38l111 -112v-391l-55 -149q-75 19 -94 93zM74 726v521q19 74 94 94l55 -149v-391l-111 -112zM205 0l56 149h446l149 -56q-19 -74 -93 -93h-558z" />
<glyph unicode="m" d="M74 93v521l38 38l111 -112v-391l-55 -149q-75 19 -94 93zM74 726v484l149 -56v-353l-111 -112zM76 1247q19 74 93 94h557l-56 -149h-445zM391 726v428h149v-428l-75 -74zM707 1192l56 149q74 -19 93 -94v-521l-37 -37l-112 112v391zM707 149v391l112 112l37 -38v-521 q-19 -74 -93 -93z" />
<glyph unicode="n" d="M74 93v521l38 38l111 -112v-391l-55 -149q-75 19 -94 93zM74 707v522q19 74 94 93l55 -149v-391l-111 -112zM261 1061v112h111l298 -298v-93h-130zM707 149v391l112 112l37 -38v-521q-19 -74 -93 -93zM707 1173l56 149q74 -19 93 -93v-522l-37 -37l-112 112v391z" />
<glyph unicode="o" d="M74 186v428l38 38l111 -112v-391l-55 -56zM74 726v428l94 93l55 -55v-391l-111 -112zM186 74l75 75h409l75 -75l-75 -74h-409zM186 1266l75 75h409l75 -75l-75 -74h-409zM707 149v391l112 112l37 -38v-428l-93 -93zM707 801v391l56 55l93 -93v-428l-37 -37z" />
<glyph unicode="p" d="M74 93v521l38 38l111 -112v-391l-55 -149q-75 19 -94 93zM74 726v484l149 -56v-353l-111 -112zM74 1247v94h596l75 -75l-75 -74h-447zM149 670l74 75h484l75 -75l-75 -74h-484zM707 801v391l56 55l93 -93v-428l-37 -37z" />
<glyph unicode="q" d="M74 93l149 56h317l149 -149h-521q-75 19 -94 93zM74 726v484l149 -56v-353l-111 -112zM74 130v484l38 38l111 -112v-354zM76 1247q19 74 93 94h557l-56 -149h-445zM521 223v112h112l242 -242v-112h-112zM707 1192l56 149q74 -19 93 -94v-521l-37 -37l-112 112v391z M707 317v223l112 112l37 -38v-446z" />
<glyph unicode="r" d="M74 726v484l149 -56v-353l-111 -112zM74 93v521l38 38l111 -112v-391l-55 -149q-75 19 -94 93zM76 1247q19 74 93 94h557l-56 -149h-445zM149 670l74 75h484l75 -75l-75 -74h-484zM261 447v112h111l484 -485q-37 -74 -149 -74zM707 1192l56 149q74 -19 93 -94v-521 l-37 -37l-112 112v391z" />
<glyph unicode="s" d="M74 93l149 56h447l56 -149h-558q-75 19 -94 93zM74 726v484l149 -56v-353l-111 -112zM76 1247q19 74 93 94h594q74 -19 93 -94l-149 -55h-482zM149 670l74 75h484l75 -75l-75 -74h-484zM707 149v391l112 112l37 -38v-521q-19 -74 -93 -93z" />
<glyph unicode="t" d="M76 1247q19 74 93 94h594q74 -19 93 -94l-149 -55h-482zM391 149v428l74 75l75 -75v-484q-19 -74 -93 -93zM391 763v391h149v-391l-75 -74z" />
<glyph unicode="u" d="M74 707v522q19 74 94 93l55 -149v-391l-111 -112zM74 93l149 56h447l56 -149h-558q-75 19 -94 93zM74 130v484l38 38l111 -112v-354zM707 149v391l112 112l37 -38v-521q-19 -74 -93 -93zM707 1192l56 149q74 -19 93 -94v-521l-37 -37l-112 112v391z" />
<glyph unicode="v" d="M74 484v112l38 37l111 -112l224 -298v-223zM74 707v522q19 74 94 93l55 -149v-391l-111 -112zM484 0v223l223 298l112 112l37 -37v-112zM707 1173l56 149q74 -19 93 -93v-522l-37 -37l-112 112v391z" />
<glyph unicode="w" d="M74 130v484l38 38l111 -112v-354zM74 726v521q19 74 94 94l55 -149v-391l-111 -112zM76 93l149 56h445l56 -149h-557q-74 19 -93 93zM391 186v428l74 75l75 -75v-428h-149zM707 1192l56 149q74 -19 93 -94v-521l-37 -37l-112 112v391zM707 149v391l112 112l37 -38v-521 q-19 -74 -93 -93z" />
<glyph unicode="x" d="M74 74l287 578h84v-201l-222 -451q-112 0 -149 74zM76 1266q37 74 149 75l222 -453v-199h-84zM484 451v201h84l287 -578q-37 -74 -149 -74zM486 689v201l221 451q112 0 149 -75l-286 -577h-84z" />
<glyph unicode="y" d="M74 93l149 56h447l56 -149h-558q-75 19 -94 93zM74 726v540l149 -56v-409l-111 -112zM149 670l74 75h484l75 -75l-75 -74h-484zM707 149v391l112 112l37 -38v-521q-19 -74 -93 -93zM707 1192l56 149q74 -19 93 -94v-521l-37 -37l-112 112v391z" />
<glyph unicode="z" d="M74 74l298 578h112v-112l-261 -540q-112 0 -149 74zM76 1247q19 74 93 94h501l-74 -149h-371zM261 0l74 149h391l56 -149h-521zM465 689v112l242 540q112 0 149 -75l-279 -577h-112z" />
<glyph unicode="{" d="M56 670l74 75h131l74 -75l-74 -74h-131zM279 801v409l149 -56v-428l-37 -37zM279 130v410l112 112l37 -38v-428zM281 93l149 56h129l111 -112l-37 -37h-259q-74 19 -93 93zM281 1247q19 74 93 94h259l37 -38l-111 -111h-129z" />
<glyph unicode="|" d="M74 149v1043l56 149q74 -19 93 -94v-1154q-19 -74 -93 -93z" />
<glyph unicode="}" d="M149 37l112 112h128l149 -56q-19 -74 -93 -93h-259zM149 1303l37 38h259q74 -19 93 -94l-149 -55h-128zM391 726v428l149 56v-409l-112 -112zM391 186v428l37 38l112 -112v-410zM484 670l75 75h130l74 -75l-74 -74h-130z" />
<glyph unicode="~" d="M56 817l74 75h75l74 -75l-74 -74h-75zM205 931l74 74h75l74 -74l-74 -75h-75zM354 819l74 75h75l74 -75l-74 -74h-75zM503 689l74 74h75l74 -74l-74 -75h-75zM652 819l74 75h75l74 -75l-74 -74h-75z" />
<glyph unicode="&#xa0;" />
<glyph unicode="&#xa9;" d="M0 93l149 56h558l56 -149h-670q-74 19 -93 93zM0 130v1080l149 -56v-968zM2 1247q19 74 93 94h668l-56 -149h-556zM223 391v521l149 -56v-409l-55 -149q-75 19 -94 93zM223 950q19 74 94 93h353l-56 -149h-242zM354 298l56 149h111l149 -56q-19 -74 -93 -93h-223z M745 149v1043l56 149q74 -19 93 -94v-1154q-19 -74 -93 -93z" />
<glyph unicode="&#xaa;" d="M74 93v521l38 38l111 -112v-391l-55 -149q-75 19 -94 93zM74 726v484l149 -56v-353l-111 -112zM76 1247q19 74 93 94h557l-56 -149h-445zM149 670l74 75h484l75 -75l-75 -74h-484zM707 149v391l112 112l37 -38v-521q-19 -74 -93 -93zM707 801v391l56 149q74 -19 93 -94 v-521l-37 -37z" />
<glyph unicode="&#xad;" d="M149 670l74 75h484l75 -75l-75 -74h-484z" />
<glyph unicode="&#xb2;" d="M74 93l149 56h503l56 -149h-614q-75 19 -94 93zM74 130v484l38 38l111 -112v-354zM76 1247q19 74 93 94h557l-56 -149h-445zM149 670l74 75h484l75 -75l-75 -74h-484zM707 801v391l56 149q74 -19 93 -94v-521l-37 -37z" />
<glyph unicode="&#xb3;" d="M74 93l149 56h447l56 -149h-558q-75 19 -94 93zM76 1247q19 74 93 94h557l-56 -149h-445zM149 670l74 75h484l75 -75l-75 -74h-484zM707 149v391l112 112l37 -38v-521q-19 -74 -93 -93zM707 801v391l56 149q74 -19 93 -94v-521l-37 -37z" />
<glyph unicode="&#xb9;" d="M707 149v391l112 112l37 -38v-521q-19 -74 -93 -93zM707 801v391l56 149q74 -19 93 -94v-521l-37 -37z" />
<glyph unicode="&#xba;" d="M74 186v428l38 38l111 -112v-391l-55 -56zM74 726v428l94 93l55 -55v-391l-111 -112zM186 74l75 75h409l75 -75l-75 -74h-409zM186 1266l75 75h409l75 -75l-75 -74h-409zM707 149v391l112 112l37 -38v-428l-93 -93zM707 801v391l56 55l93 -93v-428l-37 -37z" />
<glyph unicode="&#xc0;" d="M74 93v521l38 38l111 -112v-391l-55 -149q-75 19 -94 93zM74 726v484l149 -56v-353l-111 -112zM76 1247q19 74 93 94h557l-56 -149h-445zM149 670l74 75h484l75 -75l-75 -74h-484zM205 1724l18 75h75l242 -243v-74l-75 -19zM707 149v391l112 112l37 -38v-521 q-19 -74 -93 -93zM707 801v391l56 149q74 -19 93 -94v-521l-37 -37z" />
<glyph unicode="&#xc2;" d="M74 93v521l38 38l111 -112v-391l-55 -149q-75 19 -94 93zM74 726v484l149 -56v-353l-111 -112zM76 1247q19 74 93 94h557l-56 -149h-445zM76 1519v75l373 372l-2 -205l-298 -298zM149 670l74 75h484l75 -75l-75 -74h-484zM484 1761v205l372 -372v-75l-72 -56zM707 149 v391l112 112l37 -38v-521q-19 -74 -93 -93zM707 801v391l56 149q74 -19 93 -94v-521l-37 -37z" />
<glyph unicode="&#xc3;" d="M56 1666l74 75h75l74 -75l-74 -74h-75zM74 93v521l38 38l111 -112v-391l-55 -149q-75 19 -94 93zM74 726v484l149 -56v-353l-111 -112zM76 1247q19 74 93 94h557l-56 -149h-445zM149 670l74 75h484l75 -75l-75 -74h-484zM205 1780l74 74h75l74 -74l-74 -75h-75zM354 1668 l74 75h75l74 -75l-74 -74h-75zM503 1538l74 74h75l74 -74l-74 -75h-75zM652 1668l74 75h75l74 -75l-74 -74h-75zM707 149v391l112 112l37 -38v-521q-19 -74 -93 -93zM707 801v391l56 149q74 -19 93 -94v-521l-37 -37z" />
<glyph unicode="&#xc8;" d="M74 93l149 56h503l56 -149h-614q-75 19 -94 93zM74 130v484l38 38l111 -112v-354zM74 726v484l149 -56v-353l-111 -112zM76 1247q19 74 93 94h613l-56 -149h-501zM149 670l74 75h484l75 -75l-75 -74h-484zM216 1724l19 75h74l242 -243v-74l-74 -19z" />
<glyph unicode="&#xca;" d="M74 93l149 56h503l56 -149h-614q-75 19 -94 93zM74 130v484l38 38l111 -112v-354zM74 726v484l149 -56v-353l-111 -112zM76 1247q19 74 93 94h613l-56 -149h-501zM86 1519v75l372 372l-2 -205l-298 -298zM149 670l74 75h484l75 -75l-75 -74h-484zM493 1761v205l373 -372 v-75l-73 -56z" />
<glyph unicode="&#xcc;" d="M168 1724l18 75h75l242 -243v-74l-75 -19zM372 168v391l112 111l37 -37v-521q-19 -74 -93 -93zM372 801v391l56 149q74 -19 93 -94v-521l-37 -37z" />
<glyph unicode="&#xce;" d="M37 1519v75l373 372l-2 -205l-298 -298zM372 168v391l112 111l37 -37v-521q-19 -74 -93 -93zM372 801v391l56 149q74 -19 93 -94v-521l-37 -37zM445 1761v205l372 -372v-75l-72 -56z" />
<glyph unicode="&#xd1;" d="M56 1666l74 75h75l74 -75l-74 -74h-75zM74 93v521l38 38l111 -112v-391l-55 -149q-75 19 -94 93zM74 707v522q19 74 94 93l55 -149v-391l-111 -112zM205 1780l74 74h75l74 -74l-74 -75h-75zM261 1061v112h111l298 -298v-93h-130zM354 1668l74 75h75l74 -75l-74 -74h-75z M503 1538l74 74h75l74 -74l-74 -75h-75zM652 1668l74 75h75l74 -75l-74 -74h-75zM707 149v391l112 112l37 -38v-521q-19 -74 -93 -93zM707 782v391l56 149q74 -19 93 -93v-522l-37 -37z" />
<glyph unicode="&#xd2;" d="M74 186v428l38 38l111 -112v-391l-55 -56zM74 726v428l94 93l55 -55v-391l-111 -112zM186 74l75 75h409l75 -75l-75 -74h-409zM186 1266l75 75h409l75 -75l-75 -74h-409zM205 1724l18 75h75l242 -243v-74l-75 -19zM707 149v391l112 112l37 -38v-428l-93 -93zM707 801v391 l56 55l93 -93v-428l-37 -37z" />
<glyph unicode="&#xd4;" d="M74 186v428l38 38l111 -112v-391l-55 -56zM74 726v428l94 93l55 -55v-391l-111 -112zM74 1519v75l373 372l-2 -205l-298 -298zM186 74l75 75h409l75 -75l-75 -74h-409zM186 1266l75 75h409l75 -75l-75 -74h-409zM482 1761v205l373 -372v-75l-73 -56zM707 149v391l112 112 l37 -38v-428l-93 -93zM707 801v391l56 55l93 -93v-428l-37 -37z" />
<glyph unicode="&#xd5;" d="M56 1666l74 75h75l74 -75l-74 -74h-75zM74 186v428l38 38l111 -112v-391l-55 -56zM74 726v428l94 93l55 -55v-391l-111 -112zM186 74l75 75h409l75 -75l-75 -74h-409zM186 1266l75 75h409l75 -75l-75 -74h-409zM205 1780l74 74h75l74 -74l-74 -75h-75zM354 1668l74 75h75 l74 -75l-74 -74h-75zM503 1538l74 74h75l74 -74l-74 -75h-75zM652 1668l74 75h75l74 -75l-74 -74h-75zM707 149v391l112 112l37 -38v-428l-93 -93zM707 801v391l56 55l93 -93v-428l-37 -37z" />
<glyph unicode="&#xd9;" d="M74 93l149 56h447l56 -149h-558q-75 19 -94 93zM74 130v484l38 38l111 -112v-354zM74 707v522q19 74 94 93l55 -149v-391l-111 -112zM503 1724l18 75h75l242 -243v-74l-75 -19zM707 149v391l112 112l37 -38v-521q-19 -74 -93 -93zM707 801v391l56 149q74 -19 93 -94v-521 l-37 -37z" />
<glyph unicode="&#xdb;" d="M74 93l149 56h447l56 -149h-558q-75 19 -94 93zM74 130v484l38 38l111 -112v-354zM74 707v522q19 74 94 93l55 -149v-391l-111 -112zM372 1519v75l373 372l-2 -205l-298 -298zM707 149v391l112 112l37 -38v-521q-19 -74 -93 -93zM707 801v391l56 149q74 -19 93 -94v-521 l-37 -37zM780 1761v205l372 -372v-75l-72 -56z" />
<glyph unicode="&#xe0;" d="M74 93v521l38 38l111 -112v-391l-55 -149q-75 19 -94 93zM74 726v484l149 -56v-353l-111 -112zM76 1247q19 74 93 94h557l-56 -149h-445zM149 670l74 75h484l75 -75l-75 -74h-484zM205 1724l18 75h75l242 -243v-74l-75 -19zM707 149v391l112 112l37 -38v-521 q-19 -74 -93 -93zM707 801v391l56 149q74 -19 93 -94v-521l-37 -37z" />
<glyph unicode="&#xe2;" d="M74 93v521l38 38l111 -112v-391l-55 -149q-75 19 -94 93zM74 726v484l149 -56v-353l-111 -112zM76 1247q19 74 93 94h557l-56 -149h-445zM76 1519v75l373 372l-2 -205l-298 -298zM149 670l74 75h484l75 -75l-75 -74h-484zM484 1761v205l372 -372v-75l-72 -56zM707 149 v391l112 112l37 -38v-521q-19 -74 -93 -93zM707 801v391l56 149q74 -19 93 -94v-521l-37 -37z" />
<glyph unicode="&#xe3;" d="M56 1666l74 75h75l74 -75l-74 -74h-75zM74 93v521l38 38l111 -112v-391l-55 -149q-75 19 -94 93zM74 726v484l149 -56v-353l-111 -112zM76 1247q19 74 93 94h557l-56 -149h-445zM149 670l74 75h484l75 -75l-75 -74h-484zM205 1780l74 74h75l74 -74l-74 -75h-75zM354 1668 l74 75h75l74 -75l-74 -74h-75zM503 1538l74 74h75l74 -74l-74 -75h-75zM652 1668l74 75h75l74 -75l-74 -74h-75zM707 149v391l112 112l37 -38v-521q-19 -74 -93 -93zM707 801v391l56 149q74 -19 93 -94v-521l-37 -37z" />
<glyph unicode="&#xe8;" d="M74 93l149 56h503l56 -149h-614q-75 19 -94 93zM74 130v484l38 38l111 -112v-354zM74 726v484l149 -56v-353l-111 -112zM76 1247q19 74 93 94h613l-56 -149h-501zM149 670l74 75h484l75 -75l-75 -74h-484zM216 1724l19 75h74l242 -243v-74l-74 -19z" />
<glyph unicode="&#xea;" d="M74 93l149 56h503l56 -149h-614q-75 19 -94 93zM74 130v484l38 38l111 -112v-354zM74 726v484l149 -56v-353l-111 -112zM76 1247q19 74 93 94h613l-56 -149h-501zM86 1519v75l372 372l-2 -205l-298 -298zM149 670l74 75h484l75 -75l-75 -74h-484zM493 1761v205l373 -372 v-75l-73 -56z" />
<glyph unicode="&#xec;" d="M168 1724l18 75h75l242 -243v-74l-75 -19zM372 168v391l112 111l37 -37v-521q-19 -74 -93 -93zM372 801v391l56 149q74 -19 93 -94v-521l-37 -37z" />
<glyph unicode="&#xee;" d="M37 1519v75l373 372l-2 -205l-298 -298zM372 168v391l112 111l37 -37v-521q-19 -74 -93 -93zM372 801v391l56 149q74 -19 93 -94v-521l-37 -37zM445 1761v205l372 -372v-75l-72 -56z" />
<glyph unicode="&#xf1;" d="M56 1666l74 75h75l74 -75l-74 -74h-75zM74 93v521l38 38l111 -112v-391l-55 -149q-75 19 -94 93zM74 707v522q19 74 94 93l55 -149v-391l-111 -112zM205 1780l74 74h75l74 -74l-74 -75h-75zM261 1061v112h111l298 -298v-93h-130zM354 1668l74 75h75l74 -75l-74 -74h-75z M503 1538l74 74h75l74 -74l-74 -75h-75zM652 1668l74 75h75l74 -75l-74 -74h-75zM707 149v391l112 112l37 -38v-521q-19 -74 -93 -93zM707 782v391l56 149q74 -19 93 -93v-522l-37 -37z" />
<glyph unicode="&#xf2;" d="M74 186v428l38 38l111 -112v-391l-55 -56zM74 726v428l94 93l55 -55v-391l-111 -112zM186 74l75 75h409l75 -75l-75 -74h-409zM186 1266l75 75h409l75 -75l-75 -74h-409zM205 1724l18 75h75l242 -243v-74l-75 -19zM707 149v391l112 112l37 -38v-428l-93 -93zM707 801v391 l56 55l93 -93v-428l-37 -37z" />
<glyph unicode="&#xf4;" d="M74 186v428l38 38l111 -112v-391l-55 -56zM74 726v428l94 93l55 -55v-391l-111 -112zM74 1519v75l373 372l-2 -205l-298 -298zM186 74l75 75h409l75 -75l-75 -74h-409zM186 1266l75 75h409l75 -75l-75 -74h-409zM482 1761v205l373 -372v-75l-73 -56zM707 149v391l112 112 l37 -38v-428l-93 -93zM707 801v391l56 55l93 -93v-428l-37 -37z" />
<glyph unicode="&#xf5;" d="M56 1666l74 75h75l74 -75l-74 -74h-75zM74 186v428l38 38l111 -112v-391l-55 -56zM74 726v428l94 93l55 -55v-391l-111 -112zM186 74l75 75h409l75 -75l-75 -74h-409zM186 1266l75 75h409l75 -75l-75 -74h-409zM205 1780l74 74h75l74 -74l-74 -75h-75zM354 1668l74 75h75 l74 -75l-74 -74h-75zM503 1538l74 74h75l74 -74l-74 -75h-75zM652 1668l74 75h75l74 -75l-74 -74h-75zM707 149v391l112 112l37 -38v-428l-93 -93zM707 801v391l56 55l93 -93v-428l-37 -37z" />
<glyph unicode="&#xf9;" d="M74 93l149 56h447l56 -149h-558q-75 19 -94 93zM74 130v484l38 38l111 -112v-354zM74 707v522q19 74 94 93l55 -149v-391l-111 -112zM503 1724l18 75h75l242 -243v-74l-75 -19zM707 149v391l112 112l37 -38v-521q-19 -74 -93 -93zM707 801v391l56 149q74 -19 93 -94v-521 l-37 -37z" />
<glyph unicode="&#xfb;" d="M74 93l149 56h447l56 -149h-558q-75 19 -94 93zM74 130v484l38 38l111 -112v-354zM74 707v522q19 74 94 93l55 -149v-391l-111 -112zM372 1519v75l373 372l-2 -205l-298 -298zM707 149v391l112 112l37 -38v-521q-19 -74 -93 -93zM707 801v391l56 149q74 -19 93 -94v-521 l-37 -37zM780 1761v205l372 -372v-75l-72 -56z" />
<glyph unicode="&#x152;" horiz-adv-x="1861" d="M74 186v428l38 38l111 -112v-391l-55 -56zM74 726v428l94 93l55 -55v-391l-111 -112zM186 74l75 75h409l75 -75l-75 -74h-409zM186 1266l75 75h409l75 -75l-75 -74h-409zM707 149v391l112 112l37 -38v-428l-93 -93zM707 801v391l56 55l93 -93v-428l-37 -37zM1005 93 l149 56h503l56 -149h-615q-74 19 -93 93zM1005 130v484l38 38l111 -112v-354zM1005 726v484l149 -56v-353l-111 -112zM1007 1247q19 74 93 94h613l-56 -149h-501zM1080 670l74 75h484l75 -75l-75 -74h-484z" />
<glyph unicode="&#x153;" horiz-adv-x="1861" d="M74 186v428l38 38l111 -112v-391l-55 -56zM74 726v428l94 93l55 -55v-391l-111 -112zM186 74l75 75h409l75 -75l-75 -74h-409zM186 1266l75 75h409l75 -75l-75 -74h-409zM707 149v391l112 112l37 -38v-428l-93 -93zM707 801v391l56 55l93 -93v-428l-37 -37zM1005 93 l149 56h503l56 -149h-615q-74 19 -93 93zM1005 130v484l38 38l111 -112v-354zM1005 726v484l149 -56v-353l-111 -112zM1007 1247q19 74 93 94h613l-56 -149h-501zM1080 670l74 75h484l75 -75l-75 -74h-484z" />
<glyph unicode="&#x2c6;" d="M74 894v74l373 373l-2 -205l-298 -298zM482 1136v205l373 -373v-74l-73 -56z" />
<glyph unicode="&#x2dc;" d="M-410 326l75 74h74l75 -74l-75 -75h-74zM-261 439l75 75h74l75 -75l-75 -74h-74zM-112 328l75 74h74l75 -74l-75 -75h-74zM37 197l75 75h74l75 -75l-75 -74h-74zM186 328l75 74h74l75 -74l-75 -75h-74z" />
<glyph unicode="&#x2013;" d="M56 670l74 75h671l74 -75l-74 -74h-671z" />
<glyph unicode="&#x2014;" d="M19 670l74 75h745l74 -75l-74 -74h-745z" />
<glyph unicode="&#x2018;" d="M410 968v298l74 75l75 -75v-298h-149z" />
<glyph unicode="&#x2019;" d="M410 1043v298h149v-298l-75 -75z" />
<glyph unicode="&#x201c;" d="M261 970v298l74 74l75 -74v-298h-149zM559 968v298l74 75l74 -75v-298h-148z" />
<glyph unicode="&#x201d;" d="M261 1043v298h149v-298l-75 -75zM560 1044v298h149v-298l-74 -74z" />
<glyph unicode="&#x2022;" d="M186 679.5q0 111.5 79 191t191 79.5t191 -79.5t79 -191t-79 -190.5t-191 -79t-191 79t-79 190.5z" />
<glyph unicode="&#x2026;" horiz-adv-x="2792" d="M391 0v149h149v-149h-149zM1322 0v149h149v-149h-149zM2253 0v149h149v-149h-149z" />
<glyph unicode="&#x2039;" d="M186 652h205l298 -300l-56 -73h-74zM186 689l373 372h74l56 -72l-298 -300h-205z" />
<glyph unicode="&#x203a;" d="M186 352l298 300h205l-372 -373h-75zM186 989l56 72h75l372 -372h-205z" />
<glyph unicode="&#x2122;" horiz-adv-x="1861" d="M76 1247q19 74 93 94h594q74 -19 93 -94l-149 -55h-482zM391 149v428l74 75l75 -75v-484q-19 -74 -93 -93zM391 763v391h149v-391l-75 -74zM1005 93v521l38 38l111 -112v-391l-56 -149q-74 19 -93 93zM1005 726v484l149 -56v-353l-111 -112zM1007 1247q19 74 93 94h557 l-56 -149h-445zM1322 726v428h149v-428l-75 -74zM1638 149v391l112 112l37 -38v-521q-19 -74 -93 -93zM1638 801v391l56 149q74 -19 93 -94v-521l-37 -37z" />
<glyph unicode="&#xe000;" horiz-adv-x="1340" d="M0 1340h1340v-1340h-1340v1340z" />
<glyph unicode="&#xfb01;" horiz-adv-x="1861" d="M74 93v521l38 38l111 -112v-391l-55 -149q-75 19 -94 93zM74 726v484l149 -56v-353l-111 -112zM76 1247q19 74 93 94h613l-56 -149h-501zM149 670l74 75h484l75 -75l-75 -74h-484zM1303 168v391l112 111l37 -37v-521q-19 -74 -93 -93zM1303 801v391l56 149q74 -19 93 -94 v-521l-37 -37z" />
<glyph unicode="&#xfb02;" horiz-adv-x="1861" d="M74 93v521l38 38l111 -112v-391l-55 -149q-75 19 -94 93zM74 726v484l149 -56v-353l-111 -112zM76 1247q19 74 93 94h613l-56 -149h-501zM149 670l74 75h484l75 -75l-75 -74h-484zM1005 93v521l38 38l111 -112v-391l-56 -149q-74 19 -93 93zM1005 726v521q19 74 93 94 l56 -149v-391l-111 -112zM1136 0l56 149h446l149 -56q-19 -74 -93 -93h-558z" />
<glyph unicode="&#xfb03;" horiz-adv-x="2792" d="M74 93v521l38 38l111 -112v-391l-55 -149q-75 19 -94 93zM74 726v484l149 -56v-353l-111 -112zM76 1247q19 74 93 94h613l-56 -149h-501zM149 670l74 75h484l75 -75l-75 -74h-484zM1005 93v521l38 38l111 -112v-391l-56 -149q-74 19 -93 93zM1005 726v484l149 -56v-353 l-111 -112zM1007 1247q19 74 93 94h613l-56 -149h-501zM1080 670l74 75h484l75 -75l-75 -74h-484zM2234 168v391l112 111l37 -37v-521q-19 -74 -93 -93zM2234 801v391l56 149q74 -19 93 -94v-521l-37 -37z" />
<glyph unicode="&#xfb04;" horiz-adv-x="2792" d="M74 93v521l38 38l111 -112v-391l-55 -149q-75 19 -94 93zM74 726v484l149 -56v-353l-111 -112zM76 1247q19 74 93 94h613l-56 -149h-501zM149 670l74 75h484l75 -75l-75 -74h-484zM1005 93v521l38 38l111 -112v-391l-56 -149q-74 19 -93 93zM1005 726v484l149 -56v-353 l-111 -112zM1007 1247q19 74 93 94h613l-56 -149h-501zM1080 670l74 75h484l75 -75l-75 -74h-484zM1936 93v521l38 38l111 -112v-391l-56 -149q-74 19 -93 93zM1936 726v521q19 74 93 94l56 -149v-391l-111 -112zM2067 0l55 149h447l149 -56q-19 -74 -93 -93h-558z" />
</font>
</defs>
</svg>
